<?xml version="1.0" standalone="no"?>
<!DOCTYPE svg PUBLIC "-//W3C//DTD SVG 1.1//EN" "http://www.w3.org/Graphics/SVG/1.1/DTD/svg11.dtd">
<svg xmlns="http://www.w3.org/2000/svg">
<metadata>Copyright (C) 2014 by original authors @ fontello.com</metadata>
<defs>
<font id="digitalcatalogue" horiz-adv-x="1000" >
<font-face font-family="digitalcatalogue" font-weight="400" font-stretch="normal" units-per-em="1000" ascent="850" descent="-150" />
<missing-glyph horiz-adv-x="1000" />
<glyph glyph-name="valentino" unicode="&#xe800;" d="m78 825h-78v11h244v-10h-71l204-608 170 608h-58v10h141v-10h-73l-220-780-259 779z m395-741h69l219 759h13l228-759h75v-10h-237v10h70l-69 232h-223l-67-232h69v-10h-148v10z m365 244l-110 371-107-371h217z m280-244h82v742h-83v10h263l0-10h-86l-2-741h131 8c75 0 146 52 177 129 14 38 16 52 22 106h8v-246h-519v10z m570 0h78v742h-73v10h493v-190h-5v4c-1 57-32 125-72 154-25 18-45 22-80 22l-171 0v-354h49 6c69-1 118 62 125 158h8v-335h-6v6c-1 99-53 162-136 162h-9-38v-378h138 11c110-1 198 92 211 224h4v-235h-533v10z m584 0h65l0 742h-65v10h174l295-561v551h-62v10h141v-10h-70v-770l-403 770 0-742h64v-10h-138v10z m756 0h69v742h-33-6c-84 0-152-82-170-206h-6v216h522v-217h-5c-10 113-80 208-154 208h-10-47v-742h71v-10h-231v9z m447 0h75v742h-74v10h234v-10h-73v-742h73v-10h-235v10z m304 0h65v742h-65v10h174l295-561v551h-62v10h141v-10h-70v-770l-404 770v-742h64v-10h-138v10z m582 358c0 218 135 408 288 408 151 0 281-190 281-410 0-205-133-380-290-380-150 1-279 177-279 382z m458-167c11 61 16 124 16 186 0 146-29 271-77 327-28 33-68 52-114 52-83 0-139-59-166-173-15-67-24-139-24-213 0-159 28-284 75-339 25-28 63-43 108-43 102 0 157 60 182 203z" horiz-adv-x="5174" />
<glyph glyph-name="arrow-dx" unicode="&#xe801;" d="m280-21c-13-13-13-35 0-49s35-13 48 0l392 396c13 13 13 35 0 48l-391 396c-14 13-36 13-49 0s-13-35 0-49l357-371-357-371z" horiz-adv-x="1000" />
<glyph glyph-name="arrow-left" unicode="&#xe802;" d="m720-21c13-13 13-35 0-49s-35-13-48 0l-392 396c-13 13-13 35 0 48l392 396c13 13 35 13 48 0s13-35 0-49l-357-371 357-371z" horiz-adv-x="1000" />
<glyph glyph-name="arrow-up" unicode="&#xe803;" d="m871 130c13-13 35-13 49 0s13 35 0 49l-395 391c-14 13-36 13-49 0l-396-391c-13-14-13-35 0-49s36-13 49 0l371 357 371-357z" horiz-adv-x="1000" />
<glyph glyph-name="mail" unicode="&#xe804;" d="m0 11v607q0 37 26 63t63 26h822q37 0 63-26t26-63v-607q0-37-26-63t-63-27h-822q-36 0-63 27t-26 63z m71 0q0-8 6-13t12-5h822q7 0 12 5t6 13v428q-18-20-39-37-149-114-238-188-28-24-46-38t-48-27-57-13h-2q-26 0-57 13t-48 27-46 38q-88 74-238 188-21 17-39 37v-428z m0 607q0-94 82-159 108-84 224-176 4-3 20-17t25-21 25-17 28-16 24-5h2q11 0 24 5t28 16 25 17 25 21 20 17q116 92 224 176 30 24 56 65t26 73v14t-1 7-1 7-3 5-5 4-8 2h-822q-7 0-12-6t-6-12z" horiz-adv-x="1000" />
<glyph glyph-name="facebook" unicode="&#xe805;" d="m750 644h-143c-17 0-35-23-35-52v-103h178v-147h-178v-442h-169v442h-153v147h153v86c0 124 86 225 204 225h143v-156z" horiz-adv-x="1000" />
<glyph glyph-name="instagram" unicode="&#xe806;" d="m760 350c0-144-116-260-260-260-144 0-260 116-260 260 0 17 2 34 5 50h-175v-346c0-74 60-134 134-134h592c74 0 134 60 134 134v346h-175c3-16 5-33 5-50z m36 430h-592c-74 0-134-60-134-134v-146h218c47 67 124 110 212 110s165-43 212-110h218v146c0 74-60 134-134 134z m65-166c0-13-10-24-24-24h-72c-13 0-24 11-24 24v72c0 13 11 24 24 24h72c14 0 24-11 24-24v-72z m-201-264c0 88-72 160-160 160s-160-72-160-160 72-160 160-160 160 72 160 160z" horiz-adv-x="1000" />
<glyph glyph-name="close" unicode="&#xe807;" d="m792 583l-59 59-233-233-233 233-59-59 233-233-233-233 59-59 233 233 233-233 59 59-233 233z" horiz-adv-x="1000" />
<glyph glyph-name="location" unicode="&#xe808;" d="m500 850c-173 0-312-140-312-312 0-313 312-688 312-688s313 375 313 688c0 172-140 312-313 312z m0-500c-104 0-187 84-187 188s83 187 187 187 188-84 188-187-84-188-188-188z" horiz-adv-x="1000" />
<glyph glyph-name="minus" unicode="&#xe809;" d="m760 400h-520c-28 0-30-22-30-50s2-50 30-50h520c28 0 30 22 30 50s-2 50-30 50z" horiz-adv-x="1000" />
<glyph glyph-name="pinterest" unicode="&#xe80a;" d="m431 189c-26-138-58-270-153-339-30 208 43 364 76 530-57 97 7 291 128 243 149-59-129-359 58-396 194-39 273 337 153 460-174 177-508 4-467-249 10-62 74-81 26-166-112 24-145 112-141 230 7 192 173 326 339 345 210 23 407-77 434-275 31-223-94-465-319-447-61 5-86 35-134 64z" horiz-adv-x="1000" />
<glyph glyph-name="plus" unicode="&#xe80b;" d="m760 400h-210v210c0 28-22 30-50 30-28 0-50-2-50-30v-210h-210c-28 0-30-22-30-50s2-50 30-50h210v-210c0-28 22-30 50-30 28 0 50 2 50 30v210h210c28 0 30 22 30 50s-2 50-30 50z" horiz-adv-x="1000" />
<glyph glyph-name="rss" unicode="&#xe80c;" d="m100 710v-118c354 0 642-288 642-642h118c0 420-340 760-760 760z m0-237v-118c224 0 405-181 405-405h118c0 289-234 523-523 523z m114-296c-63 0-114-51-114-113s51-114 114-114c62 0 113 51 113 114s-51 113-113 113z" horiz-adv-x="1000" />
<glyph glyph-name="sina-weibo" unicode="&#xe80d;" d="m744 347c-14 4-23 7-16 25 16 40 17 74 0 99-31 46-118 43-217 1 0 0-31-14-23 11 15 50 13 92-11 116-54 55-197-2-320-127-92-93-145-193-145-278 0-164 207-274 409-274 265 0 441 167 441 291 0 75-62 118-118 136z m-323-354c-161-16-300 58-311 164-10 107 112 206 273 222 162 16 301-57 311-164s-111-205-273-222z m586 487c0 166-134 300-300 300-19 0-35-16-35-35s16-35 35-35c127 0 230-103 230-230 0-19 16-35 35-35s35 16 35 35c0 0 0 0 0 0z m-139 5c-16 78-78 140-156 156-19 4-37-8-41-27-4-19 8-38 27-42 51-10 91-50 101-101 4-19 23-31 42-27 19 4 31 22 27 41z m-529-210c-65-13-109-68-98-122 11-54 72-87 137-74 65 13 109 67 98 122-11 54-72 87-137 74z" horiz-adv-x="1000" />
<glyph glyph-name="twitter" unicode="&#xe80e;" d="m960 635c-34-15-70-25-108-29 39 23 69 60 83 104-37-22-77-37-120-46-35 37-84 60-138 60-104 0-189-85-189-189 0-15 2-29 5-43-157 8-296 83-389 197-16-27-25-60-25-95 0-65 33-123 84-157-31 1-61 10-86 24 0-1 0-2 0-2 0-92 65-168 151-185-15-5-32-7-49-7-12 0-24 1-36 3 24-75 94-129 176-131-64-50-145-81-234-81-15 0-30 1-45 3 84-53 183-85 289-85 348 0 537 288 537 537 0 8 0 17 0 25 37 26 69 60 94 97z" horiz-adv-x="1000" />
<glyph glyph-name="youku" unicode="&#xe80f;" d="m450 710c-16 0-31-4-44-13-29-20-45-82-65-126-21-48-40-97-61-132-56 64-95 206-163 258-22 17-70 16-92 0-58-44 0-122 24-163 52-90 109-186 153-269-28-75-172-287 20-275 47 30 67 93 92 150 52 116 96 216 150 336 22 50 76 124 64 180-6 32-42 54-78 54z m466-46c-28 0-56-13-68-38-20-23-42-45-65-65-11-14-23-26-37-37-16-17-29-37-51-48l0 133c-1 72-136 72-136 0l0-378c6-26 18-47 47-50l41 0c28 4 44 21 48 50l0 82c0 28-5 76 13 48 28-27 67-57 102-89 34-31 67-80 102-88 73-16 106 54 79 105-29 54-111 89-147 136 24 55 154 88 143 184-4 37-37 56-71 55z" horiz-adv-x="1000" />
<glyph glyph-name="arrow-down" unicode="&#xe810;" d="m129 570c-13 13-35 13-49 0-13-13-13-35 0-48l396-392c13-13 35-13 49 0l395 392c13 13 14 35 0 48s-36 13-49 0l-371-357-371 357z" horiz-adv-x="1000" />
<glyph glyph-name="youtube" unicode="&#xe811;" d="m759 142h-49l0 28c0 13 11 24 24 24h3c13 0 23-11 23-24l-1-28z m-185 61c-12 0-23-8-23-19v-139c0-10 11-19 23-19 13 0 23 9 23 19v139c0 11-10 19-23 19z m301 78v-265c0-64-55-116-123-116h-504c-68 0-123 52-123 116v265c0 64 55 116 123 116h504c68 0 123-52 123-116z m-594-294l0 280 63 0v41l-167 0v-40l52-1v-280h52z m188 238h-52v-149c0-22 1-33 0-37-5-11-24-23-31-1-1 4 0 16 0 37l0 150h-52l0-148c0-23-1-40 0-47 1-14 1-30 13-39 24-17 69 3 80 27l0-31 42 0v238z m167-171l0 124c0 48-36 76-84 38l0 92-52 0 0-319 43 1 4 20c54-51 89-16 89 44z m163 16l-39 0c0-1 0-3 0-5v-22c0-12-10-21-22-21h-7c-12 0-22 9-22 21v3 24 31h90v33c0 25-1 49-3 64-6 44-69 51-100 28-10-7-18-16-22-29-5-13-7-30-7-53v-74c0-123 150-106 132 0z m-201 403c3-7 7-12 13-16 6-4 13-6 21-6 8 0 14 2 20 6 6 4 11 11 15 19l-1-21h58v248h-46v-193c0-10-8-19-19-19-10 0-19 9-19 19v193h-48v-167c0-21 1-35 1-43 1-7 3-14 5-20z m-176 139c0 24 2 43 6 56 4 13 11 24 21 32 11 8 24 12 40 12 13 0 25-2 35-8 9-5 17-12 22-20 5-8 9-17 11-26 2-9 2-22 2-40v-63c0-23 0-39-2-50-2-11-6-21-12-30-5-9-13-16-22-21-9-4-20-6-32-6-13 0-24 1-33 5-9 4-17 10-22 17-5 8-8 17-11 28-2 11-3 27-3 49v65z m46-98c0-14 10-25 23-25 13 0 23 11 23 25v132c0 14-10 25-23 25-13 0-23-11-23-25v-132z m-161-66h55l0 189 65 163h-60l-35-121-35 121h-59l69-163 0-189z" horiz-adv-x="1000" />
<glyph glyph-name="list" unicode="&#xe812;" d="m83 204v-83h834v83h-834z m0 209v-84h834v84h-834z m0 208v-83h834v83h-834z" horiz-adv-x="1000" />
<glyph glyph-name="share" unicode="&#xe813;" d="m650 200q62 0 106-43t44-107q0-62-44-106t-106-44-106 44-44 106q0 6 1 14t1 12l-260 156q-42-32-92-32-62 0-106 44t-44 106 44 106 106 44q54 0 92-30l260 156q0 4-1 12t-1 12q0 62 44 106t106 44 106-43 44-107q0-62-44-106t-106-44q-52 0-90 32l-262-156q2-8 2-26 0-16-2-24l262-156q36 30 90 30z" horiz-adv-x="800" />
</font>
</defs>
</svg>
