<?xml version="1.0" standalone="no"?>
<!DOCTYPE svg PUBLIC "-//W3C//DTD SVG 1.1//EN" "http://www.w3.org/Graphics/SVG/1.1/DTD/svg11.dtd" >
<svg xmlns="http://www.w3.org/2000/svg">
<metadata>Generated by IcoMoon</metadata>
<defs>
<font id="valentino-icons" horiz-adv-x="1024">
<font-face units-per-em="1024" ascent="960" descent="-64" />
<missing-glyph horiz-adv-x="1024" />
<glyph unicode="&#x20;" d="" horiz-adv-x="512" />
<glyph unicode="&#xe600;" d="M99.106 928.1h-99.106v14.526h311.471v-13.045h-90.848l258.445-773.123 216.404 773.080h-73.707v13.004h179.329v-13.004h-93.213l-278.436-993.538-330.34 992.1zM601.623-14.695h87.306l279.626 966.007h16.503l290.236-966.007h96.74v-11.622h-303.212v11.622h89.672l-88.482 295.906h-283.139l-84.955-295.906h87.306v-11.622h-187.602v11.622zM1066.471 295.737l-140.401 471.363-135.683-471.363h276.084zM1422.75-14.695h103.836v944.178h-106.202v13.060h335.126l-0.041-13.060h-109.718l-1.189-942.74h176.962c95.565 0 185.251 66.736 224.166 165.343 17.707 47.894 21.221 65.268 28.318 134.908h9.449v-313.311h-660.708v11.622zM2147.162-14.695h99.106v944.137h-93.212v13.184h627.637v-242.274h-7.055v5.852c-1.163 72.531-41.308 159.533-92.023 195.792-30.683 23.214-56.664 27.585-101.486 27.585l-217.075-0.263v-450.861h70.794c87.292-1.468 151.012 79.794 159.256 201.642h9.435v-426.471h-8.245v7.249c-1.19 126.165-67.26 205.958-172.259 205.958h-58.981v-480.092h188.771c139.224-1.438 251.278 117.505 267.824 285.725h5.893v-298.785h-678.381v11.622zM2891.586-14.695h82.582l0.278 944.178h-82.582v13.060h221.806l374.836-713.595v700.535h-79.019v13.060h179.343v-13.060h-88.482v-979.012l-514.117 979.012-0.249-944.040h81.399v-11.759h-175.795v11.622zM3853.113-14.695h87.32v944.096h-49.525c-107.379 0-193.51-104.294-217.11-262.417h-8.273v275.558h665.439v-276.969h-7.11c-12.949 143.583-101.458 264.008-195.833 264.008h-71.964v-944.275h90.834v-11.622h-293.777v11.622zM4421.825-14.695h95.565v944.178h-94.403v13.060h297.319v-13.101h-93.185v-943.999h93.185v-11.759h-298.481v11.622zM4808.788-14.695h82.589v944.178h-82.589v13.060h221.813l375.010-713.595v700.535h-78.908v13.060h179.342v-13.060h-88.482v-979.012l-514.372 979.012v-944.040h81.399v-11.759h-175.802v11.622zM5548.515 440.743c0 277.053 171.069 519.257 365.74 519.257 192.291 0 358.631-242.203 358.631-520.694 0-261.102-169.881-482.997-369.255-482.997-191.129 0-355.116 223.363-355.116 484.435zM6132.5 228.947c12.976 76.888 20.059 156.682 20.059 236.476 0 185.68-36.576 343.732-97.916 416.263-35.388 42.055-87.265 65.268-145.119 65.268-106.161 0-176.963-73.956-211.16-220.484-20.087-84.11-30.684-175.471-30.684-271.228 0-201.615 35.387-361.149 95.565-430.816 31.845-36.218 80.236-55.115 136.844-55.115 129.79 0 199.374 76.89 232.411 259.636z" horiz-adv-x="6273" />
<glyph unicode="&#xe601;" d="M731.619 724.984v97.253l-5.342 7.242c-64.006 86.761-135.665 130.749-212.999 130.749-0.072 0-0.147 0-0.217 0-129.66-0.138-223.19-125.462-227.108-130.797l-5.308-7.227v-97.221h-280.645v-788.984h1006.086v788.984h-274.467zM335.362 803.691c19.607 23.642 91.028 101.82 177.913 101.82 0.024 0 0.053 0 0.079 0 56.999-0.031 111.99-34.138 163.548-101.409v-79.118h-341.54v78.707zM954.9-12.813h-903.713v686.61h229.458v-171.211h54.717v171.211h341.54v-171.211h54.717v171.211h223.281v-686.61z" horiz-adv-x="1006" />
<glyph unicode="&#xe602;" d="M878.432 385.255c0-235.922-193.255-429.176-429.177-429.176s-429.177 193.255-429.177 429.177 193.255 429.177 429.177 429.177v20.079c-248.47 0-449.255-200.784-449.255-449.255s200.784-449.255 449.255-449.255 449.255 200.784 449.255 449.255h-20.078zM441.726 704l12.549-15.059 170.666 130.51-170.666 140.549-12.549-15.059 153.098-125.49zM335.977 358.771c0-9.638-1.507-18.423-4.517-26.353-3.011-7.934-7.331-14.759-12.952-20.48-5.623-5.724-12.301-10.193-20.028-13.404-7.73-3.208-16.313-4.818-25.75-4.818-6.226 0-12.452 0.743-18.673 2.225-6.226 1.487-11.947 3.962-17.166 7.432-5.224 3.467-9.741 8.098-13.552 13.886-3.818 5.789-6.428 12.997-7.831 21.634l24.394 3.614c2.006-9.035 6.072-15.662 12.197-19.879 6.123-4.215 13.202-6.324 21.235-6.324 5.618 0 10.739 1.055 15.359 3.172 4.616 2.119 8.583 5.041 11.897 8.768s5.82 8.112 7.528 13.151c1.704 5.041 2.562 10.486 2.562 16.33 0 11.887-3.366 21.059-10.090 27.511-6.731 6.447-15.314 9.674-25.752 9.674h-15.057v21.686h12.423c10.705 0 19.444 3.109 26.211 9.335 6.767 6.221 10.155 14.254 10.155 24.094 0 4.82-0.855 9.285-2.559 13.404-1.708 4.111-4.066 7.68-7.079 10.691-3.011 3.013-6.577 5.318-10.691 6.928-4.119 1.605-8.583 2.41-13.404 2.41-7.029 0-13.656-2.312-19.877-6.928-6.226-4.621-10.441-11.347-12.649-20.18l-24.697 3.314c1.403 6.824 3.864 13.149 7.379 18.973 3.511 5.822 7.778 10.842 12.8 15.059 5.017 4.217 10.691 7.478 17.017 9.79 6.324 2.304 12.997 3.463 20.026 3.463 10.241 0 19.065-1.557 26.48-4.669 7.413-3.114 13.449-7.228 18.113-12.349 4.659-5.118 8.131-11.094 10.414-17.919 2.278-6.829 3.422-13.959 3.422-21.384 0-7.831-1.807-15.614-5.421-23.342-3.614-7.73-10.443-14.809-20.48-21.232 10.438-6.024 17.815-13.355 22.136-21.987 4.316-8.634 6.476-17.068 6.476-25.298zM486.566 358.771c0-11.248-1.764-20.985-5.284-29.215-3.525-8.235-8.156-15.011-13.891-20.329-5.738-5.322-12.279-9.237-19.625-11.745-7.351-2.509-14.848-3.765-22.494-3.765-8.66 0-16.607 1.307-23.854 3.914s-13.437 6.574-18.565 11.897c-5.135 5.318-9.112 11.897-11.931 19.728s-4.224 16.866-4.224 27.105c0 6.221 0.851 13.202 2.559 20.932 1.704 7.728 4.566 15.609 8.583 23.642l54.212 104.208h27.408l-46.566-91.256 0.903-0.303c2.814 1.206 5.935 2.11 9.362 2.71 3.419 0.603 6.743 0.903 9.96 0.903 8.052 0 15.352-1.557 21.893-4.666 6.541-3.117 12.128-7.334 16.758-12.651 4.63-5.32 8.254-11.546 10.871-18.671 2.617-7.129 3.924-14.607 3.924-22.438zM460.062 356.818c0 6.245-0.903 11.789-2.71 16.626s-4.268 8.917-7.379 12.245c-3.114 3.323-6.728 5.844-10.842 7.557-4.116 1.713-8.583 2.569-13.401 2.569-4.217 0-8.386-0.855-12.5-2.569-4.116-1.713-7.783-4.234-10.993-7.557-3.213-3.328-5.825-7.408-7.829-12.245-2.011-4.837-3.013-10.381-3.013-16.626 0-12.498 3.059-22.371 9.186-29.628 6.123-7.257 14.504-10.885 25.149-10.885 10.239 0 18.522 3.676 24.846 11.037 6.324 7.355 9.487 17.181 9.487 29.477zM635.045 352.747c0-9.439-1.61-17.82-4.818-25.149-3.215-7.331-7.531-13.504-12.952-18.522-5.421-5.020-11.647-8.838-18.673-11.445-7.031-2.607-14.357-3.914-21.984-3.914-7.634 0-14.961 1.307-21.987 3.914-7.031 2.607-13.252 6.425-18.673 11.445-5.421 5.017-9.741 11.19-12.949 18.522-3.215 7.329-4.82 15.71-4.82 25.149v95.173c0 9.434 1.605 17.815 4.82 25.149 3.208 7.327 7.528 13.5 12.949 18.522 5.421 5.015 11.642 8.833 18.673 11.445 7.026 2.607 14.353 3.914 21.987 3.914 7.627 0 14.953-1.307 21.984-3.914 7.026-2.612 13.252-6.43 18.673-11.445 5.421-5.022 9.737-11.195 12.952-18.522 3.208-7.334 4.818-15.715 4.818-25.149v-95.173zM610.348 446.113c0 11.445-3.061 20.377-9.184 26.805-6.127 6.423-14.307 9.638-24.546 9.638-10.241 0-18.423-3.215-24.546-9.638-6.127-6.428-9.186-15.359-9.186-26.805v-91.559c0-11.445 3.059-20.382 9.186-26.805 6.123-6.428 14.305-9.638 24.546-9.638 10.239 0 18.418 3.21 24.546 9.638 6.123 6.423 9.184 15.359 9.184 26.805v91.559zM750.095 466.593c0-5.625-1.052-10.895-3.162-15.811-2.107-4.924-4.969-9.186-8.583-12.8s-7.882-6.476-12.8-8.583c-4.921-2.11-10.193-3.162-15.811-3.162-5.623 0-10.895 1.052-15.811 3.162-4.924 2.107-9.186 4.969-12.8 8.583s-6.476 7.877-8.583 12.8c-2.107 4.916-3.162 10.186-3.162 15.811 0 5.618 1.055 10.888 3.162 15.811 2.107 4.919 4.969 9.186 8.583 12.8s7.877 6.476 12.8 8.583c4.916 2.107 10.188 3.162 15.811 3.162 5.618 0 10.89-1.055 15.811-3.162 4.919-2.107 9.186-4.969 12.8-8.583s6.476-7.882 8.583-12.8c2.11-4.924 3.162-10.193 3.162-15.811zM733.832 466.593c0 6.625-2.312 12.296-6.928 17.015-4.621 4.717-10.342 7.079-17.166 7.079-6.625 0-12.301-2.362-17.017-7.079-4.719-4.719-7.077-10.39-7.077-17.015 0-6.627 2.357-12.303 7.077-17.017 4.717-4.719 10.393-7.077 17.017-7.077 6.824 0 12.546 2.357 17.166 7.077 4.616 4.715 6.928 10.39 6.928 17.017z" horiz-adv-x="899" />
<glyph unicode="&#xe603;" d="M1129.498 351.345c0 0-48.943 113.24-283.779 108.946l-210.313-9.761-63.833 149.335-0.94 1.95c-4.967 10.283-13.486 17.792-23.293 21.75l-22.62 9.076c26.032 19.719 46.331 46.18 58.808 77.284 18.117 45.182 17.572 94.705-1.567 139.47-19.127 44.753-54.56 79.385-99.731 97.502-93.266 37.406-199.577-8.020-236.972-101.286-18.129-45.182-17.572-94.705 1.544-139.458 19.138-44.764 54.56-79.397 99.731-97.514l149.706-60.061 38.381-102.737-109.549-5.083-114.064 114.052c-34.412 34.423-80.174 53.376-128.862 53.376-48.676 0-94.438-18.953-128.873-53.376-71.029-71.052-71.029-186.66 0-257.712 34.435-34.423 80.209-53.388 128.873-53.388 48.687 0 94.45 18.964 128.862 53.388 23.688 23.688 40.052 52.761 47.944 84.434l17.247-17.235c7.486-7.474 17.746-12.337 29.154-12.871l2.182-0.093 721.964 0.012zM501.276 742.92c-19.231-47.886-73.803-71.249-121.701-52.053l-0.046 0.012c0 0-0.012 0-0.012 0.012-23.189 9.308-41.387 27.088-51.217 50.092-9.819 22.992-10.109 48.444-0.801 71.644 19.22 47.898 73.838 71.249 121.747 52.030 23.212-9.308 41.399-27.1 51.241-50.092 9.807-22.98 10.086-48.432 0.789-71.644zM248.346 359.771c-17.699-17.688-41.201-27.425-66.212-27.425s-48.513 9.737-66.201 27.425c-36.489 36.501-36.489 95.877 0 132.378 17.676 17.688 41.19 27.425 66.201 27.425 24.999 0 48.513-9.737 66.189-27.413l0.012-0.012 0.012-0.023c36.489-36.501 36.489-95.866 0-132.355zM593.195 289.044l50.393-134.943c88.357-217.636 211.717-218.1 211.717-218.1l-150.902 353.044h-111.209z" horiz-adv-x="1129" />
<glyph unicode="&#xe604;" d="M0 960h1339.077v-1024h-1339.077v1024z" horiz-adv-x="1339" />
<glyph unicode="&#xe605;" d="M784.1-64h-784.1l243.758 693.73c13.115 33.223 21.229 69.851 24.203 109.174 3.050 40.152 0 79.572-8.556 110.995-1.196 4.407-2.619 8.707-4.127 13.255-1.66 5.032-3.384 10.227-4.785 15.615-4.224 16.207-7.188 32.070 2.705 47.706 8.276 13.082 22.479 23.524 38.967 28.622 7.22 2.241 18.255 4.903 29.785 4.903 30.982 0 57.75-14.882 70.11-36.327 12.35 21.434 39.128 36.327 70.099 36.327 11.531 0 22.555-2.662 29.775-4.903 16.488-5.108 30.701-15.539 38.978-28.632 9.893-15.636 6.929-31.488 2.705-47.696-1.39-5.388-3.114-10.593-4.785-15.626-1.498-4.537-2.92-8.826-4.117-13.244-8.567-31.423-11.606-70.843-8.556-110.995 2.974-39.301 11.089-75.929 24.096-108.872l243.844-694.032zM23.578-47.286h736.954l-235.945 671.488c-13.513 34.193-21.994 72.459-25.098 113.441-3.19 42.017 0.043 83.44 9.095 116.663 1.325 4.828 2.877 9.537 4.386 14.085 1.649 5.011 3.211 9.72 4.483 14.58 3.502 13.47 5.679 24.559-0.657 34.57-6.186 9.785-17.048 17.651-29.796 21.606-8.653 2.673-17.479 4.149-24.839 4.149-33.449 0-60.67-20.744-60.67-46.252h-2.166v-8.341h-14.365l-0.183 8.341h-2.166c0 25.497-27.221 46.252-60.67 46.252-7.371 0-16.186-1.476-24.85-4.149-12.748-3.955-23.6-11.822-29.785-21.606-6.336-10.011-4.149-21.1-0.657-34.57 1.272-4.849 2.834-9.569 4.483-14.569 1.509-4.548 3.071-9.268 4.386-14.095 9.052-33.223 12.285-74.647 9.095-116.663-3.104-40.993-11.584-79.248-25.206-113.743l-235.827-671.186zM512.539 738.268v8.341h-240.978v-8.352c0-33.385-5.205-57.577-7.177-61.134 0.216 0.399 0.711 0.981 1.455 1.519v-15.238h253.047v16.703c2.673 0 4.407-1.401 4.806-1.907-2.694 3.351-11.153 27.803-11.153 60.067z" horiz-adv-x="784" />
<glyph unicode="&#xe606;" d="M3150.016-10.336l-33.12-53.664-1535.488 950.304-1550.048-950.56-31.68 61.664 1582.368 962.592z" horiz-adv-x="3136" />
<glyph unicode="&#xe607;" d="M0 960v-1024h1024v1024h-1024zM960 0h-896v896h896v-896z" />
<glyph unicode="&#xe608;" d="M512 960c-282.784 0-512-229.216-512-512s229.216-512 512-512 512 229.216 512 512-229.216 512-512 512zM512 32c-229.76 0-416 186.24-416 416s186.24 416 416 416 416-186.24 416-416-186.24-416-416-416zM320 640h128v-384h-128zM576 640h128v-384h-128z" />
<glyph unicode="&#xe609;" d="M512 960c-282.784 0-512-229.216-512-512s229.216-512 512-512 512 229.216 512 512-229.216 512-512 512zM512 32c-229.76 0-416 186.24-416 416s186.24 416 416 416 416-186.24 416-416-186.24-416-416-416zM384 672l384-224-384-224z" />
<glyph unicode="&#xe60a;" d="M0 960v-1024h1024v1024h-1024z" />
<glyph unicode="&#xe60b;" d="M327.522 20.84c-19.73 0-37.487 17.757-57.218 45.38-3.85 5.54-7.872 11.384-12.037 17.482-123.437-8.16-214.861-37.624-214.861-72.727 0-41.408 127.203-74.975 284.116-74.975s284.116 33.567 284.116 74.975c0 34.875-90.237 64.187-212.457 72.568-5.666-7.569-11.157-14.698-16.414-21.269-19.73-25.649-35.514-41.433-55.245-41.433zM331.468 960c-181.518 0-331.468-149.95-331.468-331.468 0-65.11 17.757-126.274 53.272-181.518l7.892-15.784c35.514-55.245 157.842-252.547 226.898-351.198 17.757-25.649 31.568-37.488 41.434-37.488s21.703 9.865 41.433 35.514c78.921 96.678 207.168 317.657 232.817 361.064 39.46 57.218 59.191 122.328 59.191 189.41 0 183.491-149.95 331.468-331.468 331.468zM329.495 448.986c-100.624 0-181.518 80.894-181.518 179.545s80.894 179.545 181.518 179.545 181.518-80.894 181.518-179.545-80.894-179.545-181.518-179.545z" horiz-adv-x="663" />
<glyph unicode="&#xe60c;" d="M778.176 499.2h-532.416c-28.32 0-30.72-22.944-30.72-51.2s2.4-51.2 30.72-51.2h532.416c28.32 0 30.784 22.944 30.784 51.2s-2.464 51.2-30.784 51.2z" />
<glyph unicode="&#xe60d;" d="M747.52 652.736l-471.040 0.064 235.52-409.6z" />
<glyph unicode="&#xe60e;" d="M276.48 243.2h471.040l-235.584 409.6z" />
<glyph unicode="&#xe60f;" d="M792.736 374.432c-20.832 21.408-240.384 230.496-240.384 230.496-11.168 11.424-25.76 17.152-40.352 17.152-14.656 0-29.248-5.728-40.352-17.152 0 0-219.552-209.088-240.448-230.496-20.832-21.408-22.272-59.904 0-82.752 22.336-22.784 53.408-24.64 80.704 0l200.096 191.84 200.032-191.84c27.328-24.64 58.464-22.784 80.704 0 22.336 22.88 20.928 61.376 0 82.752z" />
<glyph unicode="&#xe610;" d="M723.931 692.508v125.964l-5.429 7.42c-65.697 89.043-139.176 134.108-218.446 134.108h-0.181c-133.022-0.181-228.762-128.679-232.925-134.108l-5.429-7.42v-125.964h-261.52v-756.508h979.116v756.508h-255.186zM317.625 799.468c20.089 24.252 93.387 104.427 182.431 104.427v0c58.457 0 114.743-34.93 167.771-104.065v-107.323h-350.201v106.961z" horiz-adv-x="979" />
<glyph unicode="&#xe611;" d="M512.064 960.128c-281.959 0-512.064-230.105-512.064-512.064s230.105-512.064 512.064-512.064 512.064 230.105 512.064 512.064-230.105 512.064-512.064 512.064zM512.064 0.818c-246.309 0-447.246 200.936-447.246 447.246s200.936 447.246 447.246 447.246 447.246-200.936 447.246-447.246-200.936-447.246-447.246-447.246zM463.45 564.737h74.541v-320.85h-74.541v320.85zM463.45 694.373h74.541v-68.059h-74.541v68.059z" />
<glyph unicode="&#xe612;" d="M534.789 543.715h-27.347v-98.754h-95.715v-25.828h95.715v-98.754h27.347v98.754h94.196v25.828h-94.196zM512 960c-282.588 0-512-229.413-512-512s229.412-512 512-512 512 229.412 512 512-229.412 512-512 512zM512-33.614c-265.875 0-481.614 215.739-481.614 481.614s215.739 481.614 481.614 481.614 481.614-215.739 481.614-481.614-215.739-481.614-481.614-481.614z" />
<glyph unicode="&#xe613;" d="M410.208 448h217.258v-30.386h-217.258v30.386zM512 960c-282.588 0-512-229.413-512-512s229.412-512 512-512 512 229.412 512 512-229.412 512-512 512zM512-33.614c-265.875 0-481.614 215.739-481.614 481.614s215.739 481.614 481.614 481.614 481.614-215.739 481.614-481.614-215.739-481.614-481.614-481.614z" />
<glyph unicode="&#xe614;" d="M23.273 843.636c0 0-23.273 0-23.273-23.273s23.273-23.273 23.273-23.273h789.148c0 0 23.273 0 23.273 23.273s-23.273 23.273-23.273 23.273h-789.148zM115.142-64l-69.818 814.545h46.499l69.865-768h512l69.818 768h46.545l-69.818-814.545h-605.091zM347.869 960c-46.545 0-45.324-46.545-45.324-46.545v-23.273h45.324v23.273h140.858v-23.273h45.324v23.273c0 0 0 46.545-46.545 46.545h-139.636zM220.733 750.545l34.046-698.182h46.545l-34.046 698.182h-46.545zM570.207 750.545l-36.157-698.182h46.545l36.157 698.182h-46.545zM394.415 750.545v-698.182h46.545v698.182h-46.545z" horiz-adv-x="838" />
<glyph unicode="&#xe615;" d="M855.674 472.269h-664.445c-105.615 0-191.229-85.7-191.229-191.293v-153.705c0-105.593 85.614-191.272 191.229-191.272h664.445c105.593 0 191.229 85.678 191.229 191.272v153.705c0 105.593-85.636 191.293-191.229 191.293zM330.825 352.61h-61.772v-306.94h-59.68v306.94h-61.729v52.21h183.182c0 0 0-52.21 0-52.21zM505.319 45.67h-52.935v29.029c-9.84-10.736-19.979-18.933-30.566-24.461-10.587-5.763-20.811-8.453-30.758-8.453-12.295 0-21.43 3.906-27.684 11.846-6.147 7.919-9.285 19.659-9.285 35.518v221.496h52.935v-203.267c0-6.275 1.174-10.779 3.287-13.575 2.284-2.882 5.913-4.205 10.886-4.205 3.842 0 8.794 1.836 14.749 5.55 5.998 3.757 11.462 8.453 16.436 14.258v201.261h52.935v-264.997zM697.508 100.377c0-18.719-4.162-33.106-12.465-43.138-8.26-10.032-20.342-14.963-35.988-14.963-10.416 0-19.68 1.878-27.727 5.763-8.090 3.842-15.71 9.755-22.647 17.951v-20.299h-53.576v359.128h53.576v-115.668c7.172 8.004 14.749 14.216 22.668 18.378 8.090 4.248 16.222 6.297 24.461 6.297 16.756 0 29.52-5.592 38.357-16.884 8.879-11.291 13.298-27.834 13.298-49.52v-147.045h0.043zM881.139 171.776h-101.303v-49.926c0-13.917 1.708-23.607 5.165-29.008 3.543-5.422 9.498-8.068 17.972-8.068 8.794 0 14.877 2.284 18.421 6.852 3.415 4.61 5.251 14.643 5.251 30.224v12.060h54.494v-13.597c0-27.151-6.596-47.62-19.979-61.431-13.17-13.682-33.021-20.47-59.403-20.47-23.757 0-42.476 7.236-56.073 21.793-13.554 14.472-20.47 34.557-20.47 60.086v119.019c0 22.903 7.556 41.751 22.562 56.201 14.963 14.45 34.237 21.665 57.951 21.665 24.269 0 42.903-6.681 55.902-20.086 12.999-13.426 19.509-32.636 19.509-57.759v-67.557zM803.486 270.859c-8.453 0-14.472-2.369-18.143-7.321-3.757-4.653-5.507-12.615-5.507-23.736v-26.788h46.809v26.788c0 11.121-1.878 19.104-5.592 23.736-3.565 4.931-9.52 7.321-17.567 7.321zM620.838 271.755c-3.757 0-7.556-0.832-11.206-2.561-3.714-1.686-7.343-4.482-10.929-8.111v-165.060c4.248-4.269 8.453-7.556 12.551-9.434 4.077-1.814 8.303-2.839 12.807-2.839 6.51 0 11.249 1.878 14.301 5.678 3.010 3.757 4.546 9.755 4.546 18.229v136.842c0 9.008-1.793 15.753-5.55 20.384-3.885 4.568-9.392 6.873-16.521 6.873zM278.231 564.308h67.108v164.142l78.144 231.549h-68.218l-41.537-158.166h-4.226l-43.608 158.166h-67.599l79.937-238.935zM514.412 556.944c27.108 0 48.368 7.108 63.864 21.324 15.39 14.28 23.095 33.768 23.095 58.741v150.78c0 22.22-7.876 40.513-23.565 54.622-15.795 14.066-36.030 21.153-60.705 21.153-27.108 0-48.688-6.702-64.739-20.086-16.009-13.383-24.056-31.334-24.056-54.024v-151.293c0-24.824 7.834-44.461 23.479-59.189 15.646-14.664 36.564-22.028 62.626-22.028zM489.695 791.674c0 6.339 2.284 11.462 6.745 15.475 4.632 3.927 10.502 5.827 17.802 5.827 7.876 0 14.258-1.9 19.125-5.827 4.845-4.013 7.257-9.136 7.257-15.475v-159.041c0-7.791-2.369-13.981-7.172-18.442-4.76-4.482-11.163-6.681-19.21-6.681-7.876 0-13.96 2.134-18.229 6.617-4.205 4.376-6.339 10.523-6.339 18.527v159.019h0.021zM691.383 560.039c11.206 0 22.711 3.202 34.557 9.349 11.975 6.233 23.437 15.347 34.344 27.236v-32.338h59.616v291.891h-59.616v-221.56c-5.55-6.339-11.718-11.548-18.335-15.689-6.745-4.098-12.295-6.147-16.67-6.147-5.592 0-9.712 1.537-12.124 4.717-2.455 3.052-3.842 8.047-3.842 14.899v223.78h-59.531v-243.951c0-17.396 3.501-30.395 10.416-39.018 7.044-8.751 17.332-13.17 31.185-13.17z" horiz-adv-x="1047" />
<glyph unicode="&#xe616;" d="M1070.644 717.128v0.060c0 0-0.254 0.324-0.699 0.891-0.181 0.238-0.347 0.487-0.531 0.725l-0.028-0.018c-4.521 5.707-20.445 25.346-32.073 33.963v0c-45.457 41.327-123.849 35.76-138.147 32.537-14.295-3.224-37.523-17.105-31.449-50.54s36.073-29.8 63.807-27.612c24.212 1.911 48.217-14.694 53.924-18.938 0.075-0.067 7.848-6.918 12.905-14.619l-0.054-0.036c0 0 0.676-0.992 1.753-2.773 0.003-0.008 0.008-0.018 0.016-0.026 0 0 0.003 0 0.003-0.003 4.78-7.918 17.364-31.382 13.853-53.776-4.311-27.48-10.238-57.114 22.63-65.733 32.865-8.622 48.494 13.469 52.805 27.48 4.259 13.853 17.441 89.834-18.713 138.419zM1193.245 833.085c0 0-20.007 27.542-31.959 37.984-1.225 1.305-4.063 3.495-4.063 3.495-145.84 124.175-294.452 76.958-306.907 75.106-13.591-2.017-33.606-14.199-32.291-53.717 1.326-39.52 48.321-41.557 48.321-41.557 105.193 30.926 184.787-16.211 225.423-50.123 0 0 118.632-107.811 62.965-260.419 0 0-0.961-47.029 38.391-50.868s52.792 15.357 55.669 28.795c2.641 12.317 59.299 157.753-55.55 311.303zM994.799 450.275c0 0-60.008 21.115-64.087 27.834s-1.44 21.835 5.279 35.273 11.276 53.271 9.839 68.626c-1.442 15.357-2.641 50.387-56.151 76.543s-168.446-2.159-183.081-8.397c-14.637-6.24-73.664-25.468-73.664-25.468s-21.203-11.512-13.878 23.026 40.814 171.647-84.777 169.552c-125.594-2.095-280.496-122.453-334.92-175.833-54.426-53.377-236.538-235.492-192.581-435.398 0 0 19.888-58.613 53.38-93.153 33.489-34.535 79.544-86.869 185.253-125.594s204.090-51.285 313.988-51.285 268.984 34.543 382.023 116.175c113.034 81.634 160.132 166.414 164.319 225.027 4.184 58.613-19.888 135.77-110.944 173.073zM534.485 11.839c-209.118-29.168-394.128 58.209-413.232 195.167s134.936 271.628 344.052 300.793c209.113 29.171 394.128-58.209 413.234-195.165 19.098-136.959-134.941-271.628-344.055-300.796zM679.004 281.453c-19.582 93.418-123.852 150.619-232.89 127.759-109.036-22.858-181.556-117.12-161.971-210.535 19.585-93.42 123.854-150.622 232.893-127.767 109.039 22.86 181.553 117.12 161.968 210.542zM415.545 190.332c-38.166 0-69.105 30.939-69.105 69.102 0 38.166 30.939 69.105 69.105 69.105s69.105-30.939 69.105-69.105c0-38.163-30.939-69.102-69.105-69.102zM578.23 184.573c-18.288 0-33.114 14.826-33.114 33.111 0 18.288 14.826 33.114 33.114 33.114s33.111-14.826 33.111-33.114-14.826-33.111-33.111-33.111z" horiz-adv-x="1265" />
<glyph unicode="&#xe617;" d="M826.12 960h-628.219c-109.123 0-197.901-88.757-197.901-197.88v-628.239c0-109.123 88.778-197.88 197.901-197.88h628.239c109.123 0 197.88 88.757 197.88 197.88v628.26c-0.021 109.123-88.778 197.86-197.901 197.86zM882.881 841.995l22.639 0.083v-173.569l-172.99-0.558-0.599 173.548 150.951 0.496zM365.851 553.106c32.801 45.38 86.010 75.145 146.159 75.145s113.358-29.765 146.118-75.145c21.337-29.62 34.123-65.85 34.123-105.096 0-99.374-80.929-180.22-180.261-180.22-99.395 0-180.241 80.846-180.241 180.22 0.021 39.246 12.765 75.475 34.102 105.096zM924.234 133.901c0-54.138-44.017-98.114-98.114-98.114h-628.219c-54.118 0-98.135 43.976-98.135 98.114v419.205h152.851c-13.199-32.471-20.614-67.936-20.614-105.096 0-154.359 125.586-280.028 280.007-280.028 154.4 0 279.986 125.669 279.986 280.028 0 37.159-7.457 72.625-20.656 105.096h152.893v-419.205z" />
<glyph unicode="&#xe618;" d="M1404.613 362.28c-41.727 75.109-155.781 125.181-208.636 191.945 33.382 77.891 216.981 125.182 203.072 261.49-11.127 97.363-158.563 102.927-197.508 25.036-27.818-33.382-58.418-63.982-91.8-91.8-16.691-19.473-33.382-36.164-52.854-52.854-22.254-25.036-41.727-52.854-72.327-66.763 0 63.982 0 125.182 0 189.163 0 102.927-191.945 102.927-191.945 0 0-178.036 0-356.072 0-536.889 8.345-38.945 25.036-66.763 66.763-72.327 19.473 0 38.945 0 58.418 0 38.945 5.564 61.2 30.6 66.763 72.327 0 19.473 0 72.327 0 116.836 0 38.945-8.345 108.491 19.473 66.763 38.945-38.945 94.582-80.672 144.654-125.181 47.291-44.509 94.582-114.054 144.654-125.181 105.709-25.036 150.218 75.109 111.272 147.436zM575.633 940.896c-41.727-27.818-63.982-116.836-91.8-178.036-30.6-69.545-58.418-139.091-86.236-189.163-80.673 91.8-136.309 292.090-230.89 367.199-30.6 25.036-100.145 22.254-130.745 0-83.454-63.982 0-172.472 33.382-230.89 72.327-127.963 155.781-264.272 216.981-381.108-41.727-105.709-244.799-408.926 27.818-392.235 66.763 41.727 94.582 130.745 130.745 211.418 72.327 164.127 136.309 305.999 211.418 478.471 30.6 69.545 108.491 175.254 91.8 255.927-11.127 63.982-108.491 102.927-172.472 58.418z" horiz-adv-x="1419" />
<glyph unicode="&#xe619;" d="M1711.029 960l-800.443-800.443-800.443 796.444-110.143-109.779 910.586-910.586 914.221 914.221z" horiz-adv-x="1824" />
<glyph unicode="&#xe61a;" d="M513.39 960c-283.287 0-513.39-230.103-513.39-513.39s230.103-513.39 513.39-513.39 513.39 230.103 513.39 513.39-230.103 513.39-513.39 513.39zM804.274 225.191h-67.294l-226.847 206.224-232.274-206.224h-61.867l260.494 231.188-243.127 209.48h68.38l207.31-184.516 209.48 184.516h62.953l-239.871-209.48 262.664-231.188z" horiz-adv-x="1027" />
<glyph unicode="&#xe61b;" d="M1265.717 753.442l-202.163 206.558-615.279-610.884-241.717 241.717-206.558-202.163 448.275-452.67z" horiz-adv-x="1266" />
<glyph unicode="&#xe61c;" d="M945.713 815.951h-136.22v-56.367h-82.985v56.367h-508.869v-56.367h-82.985v56.367h-136.22v-798.532c0-45.407 36.012-81.419 81.419-81.419h784.44c45.407 0 81.419 36.012 81.419 81.419v798.532zM305.321-34.251h-223.902c-28.183 0-51.67 23.486-51.67 51.67v164.404h275.572v-216.073zM305.321 211.572h-277.138v216.073h275.572v-216.073zM305.321 457.394h-277.138c0 0 1.566 214.508 1.566 216.073h275.572v-216.073zM610.642-34.251h-275.572v216.073h277.138c-1.566 0-1.566-216.073-1.566-216.073zM610.642 211.572h-275.572v216.073h277.138c-1.566 0-1.566-216.073-1.566-216.073zM610.642 457.394h-275.572v217.639h277.138c-1.566 0-1.566-217.639-1.566-217.639zM917.529 17.419c0-28.183-23.486-51.67-51.67-51.67h-225.468v216.073h277.138v-164.404zM917.529 211.572h-277.138v216.073h277.138v-216.073zM640.391 457.394v217.639h275.572c0-1.566 1.566-216.073 1.566-216.073s-277.138-1.566-277.138-1.566zM159.706 960h34.446v-175.364h-34.446v175.364zM751.56 960h34.446v-175.364h-34.446v175.364z" horiz-adv-x="947" />
<glyph unicode="&#xe61d;" d="M849.85 764.952h-135.14v89.165c0 58.514-47.369 105.883-105.883 105.883h-353.872c-58.514 0-105.883-47.369-105.883-105.883v-89.165h-135.14c-8.359 0-13.932-5.573-13.932-13.932v-83.592c0-8.359 5.573-13.932 13.932-13.932h835.918c8.359 0 13.932 5.573 13.932 13.932v83.592c0 8.359-5.573 13.932-13.932 13.932zM218.732 854.117c0 19.505 16.718 36.223 36.223 36.223h355.265c19.505 0 36.223-16.718 36.223-36.223v-89.165h-427.712v89.165zM69.66 625.633v-647.837c0-23.684 18.112-41.796 41.796-41.796h640.871c23.684 0 41.796 18.112 41.796 41.796v647.837h-724.463zM313.469 107.363c0-11.146-9.752-20.898-20.898-20.898s-20.898 9.752-20.898 20.898v348.299c0 11.146 9.752 20.898 20.898 20.898s20.898-9.752 20.898-20.898v-348.299zM452.789 107.363c0-11.146-9.752-20.898-20.898-20.898s-20.898 9.752-20.898 20.898v348.299c0 11.146 9.752 20.898 20.898 20.898s20.898-9.752 20.898-20.898v-348.299zM592.109 107.363c0-11.146-9.752-20.898-20.898-20.898s-20.898 9.752-20.898 20.898v348.299c0 11.146 9.752 20.898 20.898 20.898s20.898-9.752 20.898-20.898v-348.299z" horiz-adv-x="864" />
<glyph unicode="&#xe61e;" d="M238.203 26.353l19.166-10.952v572.235l-19.166 13.69zM531.166 697.155l2.738-572.235 13.69 5.476h10.952v569.497l-8.214 2.738zM870.674 612.278l-24.642-13.69v-583.187l24.642 16.428zM837.818 667.037l-49.283 19.166-19.166-52.021 71.187-27.38 202.61 109.519v-607.829l-205.348-112.257-216.299 90.353-68.449 27.38h-5.476l-287.487-117.733-205.348 112.257v607.829l202.61-109.519 292.963 117.733 71.187-30.118-27.38 73.925-43.807 16.428-290.225-117.733-260.107 142.374v-733.775l257.369-139.636 292.963 117.733 290.225-117.733 260.107 139.636v733.775zM706.396 960c-62.973 0-114.995-52.021-114.995-114.995 0-10.952 2.738-21.904 5.476-32.856v0l109.519-271.059 112.257 282.011c2.738 8.214 2.738 16.428 2.738 24.642 0 60.235-52.021 112.257-114.995 112.257zM706.396 790.246c-27.38 0-49.283 21.904-49.283 49.283s24.642 49.283 49.283 49.283 49.283-21.904 49.283-49.283c0-27.38-21.904-49.283-49.283-49.283z" horiz-adv-x="1101" />
<glyph unicode="&#xe61f;" d="M491.948 427.948l2.674-491.948 548.094 1024-1042.715-516.010z" horiz-adv-x="1043" />
<glyph unicode="&#xe620;" d="M426.833 248.695h506.505v-43.208h-506.505v43.208zM426.833 140.8h506.505v-43.208h-506.505v43.208zM1358.174 272.421l-43.208 517.495h-237.268v170.084h-797.471v-170.334h-237.268l-42.958-517.245h280.226v-336.421h797.721v336.421h280.226zM1034.739 916.792v-278.228h-390.119v135.867h-226.279v-135.867h-94.907v278.228h711.305zM601.413 638.814h-140.113v92.66h140.113v-92.66zM1034.739-20.792h-711.555v293.214h711.555v-293.214z" horiz-adv-x="1358" />
<glyph unicode="&#xe621;" d="M0 960v-1024.254h1551.592v1024.254h-1551.592zM1438.265 897.886l-662.469-564.861-662.469 564.861h1324.938zM62.114 859.096l465.478-395.757-465.478-439.111v834.868zM124.229-2.139l451.534 425.167 200.034-170.624 200.034 170.624 451.534-425.167h-1303.134zM1489.478 24.228l-465.478 439.111 465.478 395.757v-834.868z" horiz-adv-x="1552" />
<glyph unicode="&#xe622;" d="M1246.909 834.378c-45.838-20.33-95.094-34.067-146.8-40.247 52.765 31.631 93.298 81.721 112.382 141.408-49.39-29.295-104.091-50.563-162.307-62.025-46.621 49.673-113.050 80.712-186.569 80.712-141.158 0-255.595-114.432-255.595-255.585 0-20.034 2.261-39.539 6.62-58.249-212.424 10.662-400.758 112.417-526.82 267.055-22.002-37.748-34.607-81.655-34.607-128.497 0-88.68 45.122-166.911 113.704-212.748-41.897 1.329-81.309 12.825-115.764 31.972-0.020-1.065-0.020-2.136-0.020-3.214 0-123.841 88.104-227.142 205.028-250.626-21.444-5.842-44.028-8.968-67.338-8.968-16.473 0-32.482 1.606-48.091 4.589 32.527-101.539 126.917-175.444 238.766-177.5-87.476-68.555-197.683-109.416-317.435-109.416-20.633 0-40.976 1.208-60.972 3.577 113.11-72.525 247.465-114.841 391.803-114.841 470.131 0 727.221 389.471 727.221 727.229 0 11.082-0.256 22.103-0.742 33.066 49.949 36.034 93.281 81.051 127.546 132.309z" horiz-adv-x="1248" />
<glyph unicode="&#xe623;" d="M474.899 629.267h-161.126v106.004c0 40.282 25.441 48.762 44.522 48.762s114.484 0 114.484 0v175.967h-156.886c-173.847 0-214.128-131.445-214.128-214.128v-116.605h-101.764v-180.207h101.764c0-231.089 0-510.94 0-510.94h212.008c0 0 0 281.971 0 510.94h144.166l16.961 180.207z" horiz-adv-x="475" />
<glyph unicode="&#xe624;" d="M421.526 960c-279.647 0-419.47-199.454-419.47-368.064 0-100.755 39.068-191.229 121.317-224.129 14.394-6.169 24.675 0 28.787 14.394 2.056 10.281 8.225 37.012 12.337 47.293 4.112 14.394 2.056 20.562-8.225 32.9-24.675 28.787-39.068 63.743-39.068 115.149 0 148.048 111.036 281.703 289.928 281.703 158.329 0 244.691-96.643 244.691-226.185 0-168.61-74.024-312.546-187.116-312.546-61.687 0-106.924 51.406-92.53 113.092 18.506 74.024 51.406 154.217 51.406 207.679 0 47.293-26.731 88.418-80.193 88.418-63.743 0-113.092-65.799-113.092-152.161 0-55.518 18.506-92.53 18.506-92.53s-63.743-273.478-76.080-320.771c-22.618-94.586-4.112-211.791-2.056-224.129 0-6.169 10.281-8.225 14.394-4.112 6.169 8.225 80.193 100.755 106.924 193.285 8.225 26.731 41.124 162.442 41.124 162.442 20.562-39.068 80.193-74.024 143.936-74.024 189.173 0 316.659 172.723 316.659 403.020 0 176.835-148.048 339.277-372.177 339.277z" horiz-adv-x="792" />
<glyph unicode="&#xe625;" d="M0 960h415.702v-415.702h-415.702v415.702zM608.298 960h415.702v-415.702h-415.702v415.702zM608.298 351.702h415.702v-415.702h-415.702v415.702zM0 351.702h415.702v-415.702h-415.702v415.702z" />
<glyph unicode="&#xe626;" d="M549.604-64l-439.684 445.469c-69.424 69.424-109.921 156.203-109.921 248.768 0 86.78 34.712 167.774 98.35 231.412s144.633 98.35 237.198 98.35c80.994 0 156.203-28.927 214.056-80.994 57.853 52.068 138.847 80.994 214.056 80.994 86.78 0 173.559-34.712 237.198-98.35s98.35-144.633 98.35-231.412c0-92.565-40.497-179.345-109.921-248.768l-439.684-445.469zM335.548 902.147c-75.209 0-144.633-28.927-196.701-80.994s-80.994-121.492-80.994-190.915c0-75.209 34.712-150.418 92.565-208.271l399.186-399.186 399.186 399.186c57.853 57.853 92.565 133.062 92.565 208.271 0 69.424-28.927 138.847-80.994 190.915s-121.492 80.994-196.701 80.994c-69.424 0-138.847-28.927-190.915-80.994l-23.141-23.141-23.141 23.141c-52.068 52.068-121.492 80.994-190.915 80.994z" horiz-adv-x="1099" />
<glyph unicode="&#xe627;" d="M74.436 6.916l-3.521 3.521 437.564 437.564-437.564 437.564 3.521 3.521 441.084-441.084zM74.436 960l512.503-512-512.503-512-74.436 74.436 437.564 437.564-437.564 437.564z" horiz-adv-x="587" />
<glyph unicode="&#xe628;" d="M512 889.084l3.521-3.521-437.061-437.564 437.061-437.564-3.521-3.521-441.084 441.084zM512-64l-512 512 512 512 74.939-74.436-437.564-437.564 437.564-437.564z" horiz-adv-x="587" />
<glyph unicode="&#xe629;" d="M1044.645 452.129c0-144.516-49.548-264.258-152.774-363.355s-227.097-152.774-367.484-152.774-264.258 49.548-367.484 148.645c-103.226 99.097-156.903 218.839-156.903 363.355s53.677 264.258 152.774 363.355c103.226 99.097 222.968 148.645 367.484 148.645s264.258-49.548 367.484-148.645c103.226-94.968 156.903-218.839 156.903-359.226zM995.097 456.258c0 128-45.419 235.355-140.387 326.194-90.839 90.839-202.323 132.129-330.323 132.129l-49.548-103.226 57.806-12.387 45.419 45.419 78.452-4.129 16.516-41.29-53.677-49.548v-28.903l28.903-4.129 12.387 20.645 49.548 33.032v-20.645l20.645-33.032-20.645-24.774 12.387-12.387h-33.032l12.387-28.903-74.323-33.032 12.387-41.29h-24.774l-8.258 41.29h-53.677l-8.258-16.516-20.645 8.258-37.161-37.161 28.903-33.032v-37.161l28.903-20.645 177.548-20.645 57.806-41.29-8.258-99.097-119.742-119.742c-8.258-8.258-16.516-28.903-24.774-66.065-8.258-33.032-8.258-57.806-8.258-70.194l-16.516-20.645c-12.387 28.903-33.032 70.194-57.806 132.129-4.129 20.645-8.258 45.419-12.387 78.452-4.129 24.774-4.129 49.548-8.258 78.452l-86.71 61.935 66.065 78.452-28.903 41.29c-45.419 8.258-70.194 16.516-82.581 24.774s-37.161 24.774-66.065 57.806l24.774-53.677-16.516-8.258-41.29 78.452 8.258 74.323-12.387 49.548-41.29 37.161-28.903 8.258-24.774-16.516-28.903-8.258c-78.452-90.839-115.613-194.065-115.613-309.677 0-128 45.419-239.484 140.387-330.323 90.839-90.839 202.323-132.129 334.452-132.129 128 0 239.484 45.419 330.323 136.258 94.968 90.839 140.387 202.323 140.387 334.452z" horiz-adv-x="1045" />
<glyph unicode="&#xe62a;" d="M0 521.143h438.857v438.857h146.286v-438.857h438.857v-146.286h-438.857v-438.857h-146.286v438.857h-438.857v146.286z" />
<glyph unicode="&#xe62b;" d="M655.847 448.018l357.862 357.874c13.726 13.726 13.726 35.966 0 49.68l-94.149 94.149c-13.714 13.714-35.954 13.714-49.68 0l-357.874-357.874-357.874 357.874c-13.714 13.714-35.966 13.714-49.692 0l-94.149-94.149c-13.726-13.714-13.726-35.954 0-49.68l357.874-357.874-357.862-357.885c-13.737-13.726-13.737-35.966 0-49.68l94.137-94.149c13.726-13.726 35.978-13.726 49.692 0l357.874 357.862 357.862-357.862c13.726-13.726 35.966-13.726 49.68 0l94.149 94.149c13.726 13.714 13.726 35.954 0 49.68l-357.85 357.885z" />
<glyph unicode="&#xe62c;" d="M314.603 960l17.399-10.741-308.109-497.838 300.696-504.985-17.562-10.435-307.026 515.625z" horiz-adv-x="332" />
<glyph unicode="&#xe62d;" d="M17.398-64l-17.399 10.741 308.109 497.838-300.696 504.985 17.562 10.435 307.026-515.625z" horiz-adv-x="332" />
<glyph unicode="&#xe62e;" d="M848.891 171.452l-178.859 178.859c51.094 64.188 81.702 145.411 81.702 233.834 0 103.793-42.073 197.763-110.095 265.773-68.021 68.021-161.979 110.095-265.773 110.095s-197.763-42.073-265.773-110.095-110.095-161.979-110.095-265.773 42.073-197.763 110.095-265.785c68.021-68.021 161.979-110.083 265.773-110.083 93.275 0 178.547 34.047 244.245 90.304l362.582-362.582 50.818 50.818-184.621 184.633zM375.867 280.145c-83.811 0-159.811 34.095-214.858 89.13-55.047 55.047-89.13 131.035-89.13 214.858 0 83.811 34.095 159.811 89.13 214.846 55.047 55.047 131.047 89.142 214.858 89.142s159.811-34.095 214.858-89.142c55.047-55.047 89.13-131.035 89.13-214.846s-34.095-159.811-89.13-214.858c-55.047-55.035-131.047-89.13-214.858-89.13z" horiz-adv-x="1034" />
<glyph unicode="&#xe62f;" d="M0-78.769v42.667h1493.888v-42.667h-1493.888zM0 390.564v42.667h1493.888v-42.667h-1493.888zM0 902.564v42.667h1493.888v-42.667h-1493.888z" horiz-adv-x="1494" />
<glyph unicode="&#xe630;" d="M511.744 960c-282.807 0-512-229.193-512-512s229.193-512 512-512 512 229.193 512 512c0 282.807-229.193 512-512 512zM511.744 917.321c258.779 0 469.321-210.542 469.321-469.321 0-113.883-40.85-218.368-108.581-299.776-46.373 19.456-156.818 57.819-225.536 78.153-5.851 1.829-6.766 2.085-6.766 26.368 0 20.041 8.265 40.229 16.274 57.271 8.704 18.578 19.054 49.81 22.747 77.787 10.386 12.032 24.539 35.803 33.573 81.042 7.973 39.936 4.242 54.418-1.024 68.096-0.549 1.426-1.134 2.853-1.499 4.242-2.011 9.326 0.695 57.966 7.534 95.671 4.718 25.856-1.207 80.933-36.791 126.427-22.491 28.745-65.573 64.073-144.201 69.010l-43.081-0.037c-77.312-4.864-120.357-40.192-142.848-68.974-35.657-45.495-41.582-100.535-36.827-126.391 6.839-37.705 9.582-86.345 7.57-95.488-0.402-1.573-0.987-2.999-1.573-4.425-5.266-13.678-8.997-28.16-0.987-68.096 9.070-45.239 23.186-69.010 33.573-81.042 3.657-28.014 14.007-59.209 22.747-77.787 6.4-13.568 9.362-32.037 9.362-58.149 0-24.247-0.878-24.576-6.363-26.295-70.766-20.882-183.15-61.513-225.097-79.872-69.047 81.737-110.848 187.136-110.848 302.263 0 258.779 210.542 469.321 469.321 469.321zM184.247 112.457c48.055 19.566 143.653 53.723 206.592 72.338 36.571 11.483 36.571 42.35 36.571 67.072 0 20.48-1.39 50.761-13.422 76.325-8.265 17.554-17.664 47.579-19.712 71.095-0.512 5.486-3.072 10.569-7.241 14.263-5.998 5.266-18.322 24.686-26.149 63.744-6.181 30.903-3.584 37.669-0.987 44.251 1.097 2.743 2.085 5.486 2.926 8.631 5.157 18.725-0.585 80.238-6.802 114.395-2.743 14.811 0.658 56.978 28.416 92.489 24.905 31.781 62.574 49.481 110.592 52.59l40.448 0.037c49.371-3.109 87.040-20.846 111.909-52.626 27.758-35.511 31.122-77.678 28.453-92.489-6.217-34.121-11.922-95.671-6.839-114.322 0.878-3.182 1.902-5.925 2.999-8.667 2.487-6.583 5.157-13.349-1.061-44.251-7.826-39.095-20.114-58.514-26.185-63.744-4.133-3.657-6.693-8.741-7.168-14.263-2.085-23.479-11.52-53.541-19.749-71.095-9.472-20.078-20.334-46.811-20.334-75.447 0-24.759 0-55.552 37.010-67.218 60.197-17.774 156.379-50.834 207.214-70.839-84.882-84.005-201.472-136.046-329.984-136.046-127.342 0-242.834 51.163-327.497 133.778z" />
<glyph unicode="&#xe631;" d="M0 906.337l33.13 53.663 1535.496-950.308 1550.046 950.56 31.681-61.662-1582.357-962.59z" horiz-adv-x="3150" />
<glyph unicode="&#xe632;" d="M984.225-64l-472.225 472.225-472.225-472.225-39.775 39.775 472.225 472.225-472.225 472.225 39.775 39.775 472.225-472.225 472.225 472.225 39.775-39.775-472.225-472.225 472.225-472.225z" />
<glyph unicode="&#xe633;" d="M299.754 960c-165.544 0-299.754-134.13-299.754-299.754 0-165.584 299.754-724.246 299.754-724.246s299.754 558.702 299.754 724.206c0 165.544-134.17 299.794-299.754 299.794zM299.754 517.043c-79.095 0-143.242 64.107-143.242 143.242s64.147 143.203 143.242 143.203 143.242-64.107 143.242-143.242-64.147-143.203-143.242-143.203z" horiz-adv-x="600" />
<glyph unicode="&#xe634;" d="M0-63.355l289.403 77.558-210.708 210.719zM875.235 600.067l-547.718-547.873-210.734 210.675 547.718 547.873 210.734-210.675zM917.391 642.232l92.723 92.692c18.524 18.555 18.524 48.876 0 67.451l-143.278 143.258c-18.534 18.524-48.876 18.524-67.492 0l-92.641-92.754 210.688-210.647z" />
<glyph unicode="&#xe635;" d="M939.616 811.616c-112.448 112.512-294.816 112.512-407.264 0l-466.88-461.344c-87.328-87.328-87.328-229.472 0-316.8s229.44-87.328 316.736 0l466.88 461.376c62.496 62.496 62.496 163.776 0 226.272-62.496 62.464-163.808 62.464-226.24 0l-350.976-350.976c-12.512-12.544-12.512-32.736 0-45.28 12.512-12.512 32.736-12.512 45.248 0l351.008 351.008c37.44 37.408 98.304 37.408 135.744 0 37.44-37.44 37.44-98.336 0-135.776l-466.88-461.344c-62.496-62.496-163.744-62.496-226.24 0-62.496 62.464-62.496 163.776 0 226.24l462.304 456.864c87.488 87.488 229.376 87.488 316.736 0 87.552-87.52 87.552-229.28 0.064-316.768l-346.432-346.464c-12.576-12.544-12.576-32.736 0-45.248 12.512-12.544 32.736-12.544 45.248 0l350.944 350.976c112.512 112.448 112.512 294.816 0 407.264z" />
</font>
</defs>
</svg>
